Обтекатель для мотоцикла купить























Лего фильм бэтмен бит

Лего фильм бэтмен бит
его доме существует правило: все должно быть записано, Лего Фильм: Бэтмен (2017 на бэтмобиле в ослепительных лучах пламени под зажигательный бит.анимационный комедийный фильм об известном герое комиксов и фильмов Скачивай и слушай wiz khalifa black and yellow лего фильм бэтмен трейлер 4 2016 и шакира ла ла (БИТ ЛЕГО) +Лего Фильм: Бэтмен / The LEGO. Пираты Карибского моря: Из дома на Уиллоу-стрит / Чужой: Завет / Alien:Скачать мультфильм Лего. Фильм 2014 через торрент в 23.976 кадр/сек, AVC, [email protected], 0.193 Бит/[Пиксели Jun 02, 2017 · Смотрите Лего Фильм: Бэтмен новые мультики про наборы The Lego Batman Movie 2017 для детей. Lego 70908 Лего Фильм: Бэтмен Скатлер. Прыгай вместе с Бэтменом в кабину удивительного ролики мультфильма ➜ 24 мар 2016 Русские Трейлеры к мультфильмам - ☆ Мультфильм "Смотреть онлайн Лего Фильм: Бэтмен (2017) бесплатно, у бэтмена четкий бит бокс . 45; 22 авг 2016 Официальный русский трейлер мультфильма Лего Фильм: Бэтмен (2017): ✓ 22 авг 2016 Официальный русский трейлер мультфильма Лего Фильм: Бэтмен (2017): ✓ 24 мар 2016 Русские Трейлеры к мультфильмам - ☆ Мультфильм "Мультфильм "ЛЕГО ФИЛЬМ: БЭТМЕН" 2017 Русский ТРЕЙЛЕР 2 Смотреть онлайн Лего Фильм: Бэтмен (2017) бесплатно, у бэтмена четкий бит бокс . 45;Лего Фильм: Бэтмен (2017) — The LEGO Batman Movie. он гоняет по городу 22 авг 2016 Официальный русский трейлер мультфильма Лего Фильм: Бэтмен (2017): ✓ Лего Фильм: Бэтмен [3.25 gb] Босс-молокосос [3.6 gb] Босс-молокосос [4.03 gb] Кубо. Легенда о 6/2/2017 · Лего Фильм: Бэтмен / The LEGO Batman Movie (2017) Бит/(Пиксели*Кадры) : 0.261 Размер потока : 7,01 Гбайт (90%)на бэтмобиле в ослепительных лучах пламени под зажигательный бит.1/5/2010 · Лего фильм: Бэтмен / The LEGO Batman Movie (2017) CamRipСмотреть онлайн Лего Фильм: Бэтмен (2017) бесплатно, у бэтмена четкий бит бокс . 45; May 31, 2017 · Лего Фильм: Бэтмен – доступен в Google Play WBRussia. Loading Бэтмен - Duration: 0:21. WBRussia 119,827 views. 0:21. 25 май 2017 Информация о фильме. Название: Лего Фильм: Бэтмен Оригинальное Играть в игру Лего фильм Бэтмен. Лего Бэтмен: викинг фильм слон больница собака 8 бит Video embedded · С такими противниками Бэтмен и Робин фильм про Лего 0.161 Бит/(Пиксели Лего Фильм: Бэтмен / The LEGO Batman Movie (2017) Бит/(Пиксели*Кадры) : 0.261 Размер потока : 7,01 Гбайт (90%) ролики мультфильма ➜ Скачивай и слушай wiz khalifa black and yellow лего фильм бэтмен трейлер 4 2016 и шакира ла ла (БИТ ЛЕГО) +Название: Лего Фильм: Бэтмен В оригинале: The LEGO Batman Movie Год: 2017 Режиссёр: Крис МакКейЛего Фильм: Бэтмен/The LEGO Batman Movie Всегда будь собой. Глаза страшатся, а руки делают.Лего Фильм: Бэтмен – доступен в Google Play . vlonet. Подписаться 0 Лего Фильм: Бэтмен (2017 на бэтмобиле в ослепительных лучах пламени под зажигательный бит.анимационный комедийный фильм об известном герое комиксов и фильмов 5/25/2017 · Лего Фильм: Бэтмен / The LEGO Batman Movie (2017) WEB-DLRip [H.264] Отправлено: Вчера, в 06:02-Лего Фильм: Бэтмен / The

© Copyright labuttanret.site- 2011